Logan 2017 BluRay 1080p DD5.1 H265-d3g[PRiME]

  • Category Movies
  • Type h.264/x264
  • Language English
  • Total size 2.5 GB
  • Uploaded By sub7
  • Downloads 92
  • Last checked 7 months ago
  • Date uploaded 1 year ago
  • Seeders 3
  • Leechers 4

Infohash : 2A4E49AD5C6F8F16D5BBF59C91455A0A97C4B257


Logan 2017 BluRay hevc-d3g.[PRiME]

ImDb: http://www.imdb.com/title/tt3315342



Complete name                            : Logan 2017 BluRay 1080p DD5.1 H265-d3g[PRiME].mkv
Format                                   : Matroska
Format version                           : Version 4 / Version 2
File size                                : 2.53 GiB
Duration                                 : 2 h 17 min
Overall bit rate                         : 2 632 kb/s
Movie name                               : Logan 2017 BluRay 1080p DD5.1 H265-d3g
Encoded date                             : UTC 2017-05-23 02:56:22
Writing application                      : DVDFab 10.0.3.9
Writing library                          : libebml v1.3.4 + libmatroska v1.4.5

Video
ID                                       : 1
Format                                   : HEVC
Format/Info                              : High Efficiency Video Coding
Format profile                           : [email protected]@Main
Codec ID                                 : V_MPEGH/ISO/HEVC
Duration                                 : 2 h 17 min
Bit rate                                 : 2 162 kb/s
Width                                    : 1 920 pixels
Height                                   : 808 pixels
Display aspect ratio                     : 2.40:1
Frame rate mode                          : Constant
Frame rate                               : 23.976 (24000/1001) FPS
Color space                              : YUV
Chroma subsampling                       : 4:2:0 (Type 1)
Bit depth                                : 8 bits
Bits/(Pixel*Frame)                       : 0.058
Stream size                              : 2.07 GiB (82%)
Default                                  : Yes
Forced                                   : No
Color range                              : Full
Color primaries                          : BT.709
Transfer characteristics                 : BT.709
Matrix coefficients                      : BT.709

Audio
ID                                       : 2
Format                                   : AC-3
Format/Info                              : Audio Coding 3
Mode extension                           : CM (complete main)
Format settings, Endianness              : Big
Codec ID                                 : A_AC3
Duration                                 : 2 h 17 min
Bit rate mode                            : Constant
Bit rate                                 : 448 kb/s
Channel(s)                               : 6 channels
Channel positions                        : Front: L C R, Side: L R, LFE
Sampling rate                            : 48.0 kHz
Frame rate                               : 31.250 FPS (1536 spf)
Compression mode                         : Lossy
Stream size                              : 440 MiB (17%)
Language                                 : English
Default                                  : Yes
Forced                                   : No

Text #1
ID                                       : 3
Format                                   : VobSub
Codec ID                                 : S_VOBSUB
Codec ID/Info                            : Picture based subtitle format used on DVDs
Duration                                 : 2 h 13 min
Bit rate                                 : 8 816 b/s
Count of elements                        : 1951
Stream size                              : 8.44 MiB (0%)
Language                                 : English
Default                                  : No
Forced                                   : No

Text #2
ID                                       : 4
Format                                   : VobSub
Codec ID                                 : S_VOBSUB
Codec ID/Info                            : Picture based subtitle format used on DVDs
Duration                                 : 2 h 16 min
Bit rate                                 : 5 776 b/s
Count of elements                        : 1376
Stream size                              : 5.63 MiB (0%)
Language                                 : Spanish
Default                                  : No
Forced                                   : No

Text #3
ID                                       : 5
Format                                   : VobSub
Codec ID                                 : S_VOBSUB
Codec ID/Info                            : Picture based subtitle format used on DVDs
Duration                                 : 2 h 16 min
Bit rate                                 : 6 444 b/s
Count of elements                        : 1561
Stream size                              : 6.28 MiB (0%)
Language                                 : French
Default                                  : No
Forced                                   : No

Menu
00:00:00.000                             : en:(01)00:00:00:000
00:05:35.126                             : en:(02)00:05:35:126
00:09:18.558                             : en:(03)00:09:18:558
00:11:41.158                             : en:(04)00:11:41:158
00:16:23.232                             : en:(05)00:16:23:232
00:20:11.668                             : en:(06)00:20:11:668
00:24:26.715                             : en:(07)00:24:26:715
00:26:11.903                             : en:(08)00:26:11:903
00:30:13.311                             : en:(09)00:30:13:311
00:31:59.125                             : en:(10)00:31:59:125
00:34:56.886                             : en:(11)00:34:56:886
00:39:53.432                             : en:(12)00:39:53:432
00:42:55.573                             : en:(13)00:42:55:573
00:45:03.826                             : en:(14)00:45:03:826
00:47:53.412                             : en:(15)00:47:53:412
00:49:39.559                             : en:(16)00:49:39:559
00:52:14.422                             : en:(17)00:52:14:422
00:54:30.517                             : en:(18)00:54:30:517
00:57:44.210                             : en:(19)00:57:44:210
01:00:10.398                             : en:(20)01:00:10:398
01:03:53.830                             : en:(21)01:03:53:830
01:06:55.511                             : en:(22)01:06:55:511
01:09:54.773                             : en:(23)01:09:54:773
01:13:15.891                             : en:(24)01:13:15:891
01:18:43.593                             : en:(25)01:18:43:593
01:21:50.906                             : en:(26)01:21:50:906
01:25:52.188                             : en:(27)01:25:52:188
01:28:38.813                             : en:(28)01:28:38:813
01:32:41.430                             : en:(29)01:32:41:430
01:35:29.724                             : en:(30)01:35:29:724
01:41:03.432                             : en:(31)01:41:03:432
01:43:39.880                             : en:(32)01:43:39:880
01:49:38.989                             : en:(33)01:49:38:989
01:54:20.562                             : en:(34)01:54:20:562
01:57:00.430                             : en:(35)01:57:00:430
01:59:20.403                             : en:(36)01:59:20:403
02:01:14.433                             : en:(37)02:01:14:433
02:05:09.627                             : en:(38)02:05:09:627
02:06:40.551                             : en:(39)02:06:40:551
02:11:07.860                             : en:(40)02:11:07:860
02:17:23.026                             : en:(41)02:17:23:026




Click Image To View Full Size


Click To View Screenshot
Click To View Screenshot
Click To View Screenshot


Files:

Logan 2017 BluRay hevc-d3g.[PRiME]
  • Logan 2017 BluRay 1080p DD5.1 H265-d3g[PRiME].mkv (2.5 GB)
  • Please Support!! Read More!!!.txt (0.3 KB)

Comments

Code:

  • udp://tracker.ilibr.org:6969/announce
  • udp://tracker.coppersurfer.tk:6969
  • udp://tracker.ilibr.org:80/announce
  • udp://tracker.coppersurfer.tk:6969/announce
  • udp://tracker.leechers-paradise.org:6969/announce
  • udp://tracker.opentrackr.org:1337/announce
  • udp://tracker.zer0day.to:1337/announce
  • udp://ipv4.tracker.harry.lu:80/announce
  • udp://p4p.arenabg.ch:1337/announce
  • udp://p4p.arenabg.com:1337/announce
  • udp://9.rarbg.com:2710/announce
  • udp://9.rarbg.to:2710/announce
  • udp://9.rarbg.me:2710/announce
  • udp://explodie.org:6969/announce
  • udp://eddie4.nl:6969/announce
SitemapThe Sky Is Low, The Clouds Are Mean By Emily Dickinson | The New Romantic | LetMeWatchThis - Watch free movies online