The Twilight Saga Breaking Dawn Part 1[2011]CAM XviD-BlackStaticR...

  • Category Movies
  • Type Divx/Xvid
  • Language English
  • Total size 747.6 MB
  • Uploaded By Rishi
  • Downloads 870
  • Last checked 22 hours ago
  • Date uploaded 7 years ago
  • Seeders 0
  • Leechers 0

The Twilight Saga: Breaking Dawn - ...

AdventureFantasyRomance

The new found married bliss of Bella Swan and vampire Edward Cullen is cut short when a series of betrayals and misfortunes threatens to destroy their world. Bella soon discovers she is pregnant, and during a nearly fatal childbirth, Edward finally fulfills her wish to become immortal. But the arrival of their remarkable daughter, Renesmee, sets in motion a perilous chain of events that pits the Cullens and their allies against the Volturi, the fearsome council of vampire leaders, setting the stage for an all-out battle.

Infohash : 3103BFD8B10F5D87005F9291219027EDE1FE3295






Code:

Genre :Adventure | Drama | Fantasy

Language:English

IMDb:http://www.imdb.com/title/tt1324999/

PLOT:The Quileute and the Volturi close in on expecting parents Edward and Bella, whose unborn child poses different threats to the wolf pack and vampire coven.



Format : AVI
Format/Info : Audio Video Interleave
File size : 745 MiB
Duration : 1h 43mn
Overall bit rate : 1 011 Kbps
Writing library : VirtualDub build 32842/release

Video
ID : 0
Format : MPEG-4 Visual
Format profile : Advanced [email protected]
Format settings, BVOP : 2
Format settings, QPel : No
Format settings, GMC : No warppoints
Format settings, Matrix : Default (H.263)
Muxing mode : Packed bitstream
Codec ID : XVID
Codec ID/Hint : XviD
Duration : 1h 43mn
Bit rate : 871 Kbps
Width : 720 pixels
Height : 288 pixels
Display aspect ratio : 2.500
Frame rate : 25.000 fps
Color space : YUV
Chroma subsampling : 4:2:0
Bit depth : 8 bits
Scan type : Progressive
Compression mode : Lossy
Bits/(Pixel*Frame) : 0.168
Stream size : 642 MiB (86%)
Writing library : XviD 64

Audio
ID : 1
Format : MPEG Audio
Format version : Version 1
Format profile : Layer 3
Codec ID : 55
Codec ID/Hint : MP3
Duration : 1h 43mn
Bit rate mode : Constant
Bit rate : 128 Kbps
Channel(s) : 2 channels
Sampling rate : 44.1 KHz
Compression mode : Lossy
Stream size : 94.4 MiB (13%)
Alignment : Aligned on interleaves
Interleave, duration : 26 ms (0.65 video frame)
Interleave, preload duration : 522 ms










Greetz to IMAGiNE,Flawl3ss,BDK,Ez,DDR,Sam,absurdity,BHRG,iLLUMiNATi,ViSUALiSE,MiSTERE,Feel-free

Files:

  • The Twilight Saga Breaking Dawn Part 1[2011]CAM XviD-BlackStaticRG.avi (745.3 MB)
Screen-Shots
  • vlcsnap-2011-11-20-20h27m41s183.png (350.9 KB)
  • vlcsnap-2011-11-20-20h26m30s235.png (331.6 KB)
  • vlcsnap-2011-11-20-20h29m49s189.png (283.1 KB)
  • vlcsnap-2011-11-20-20h30m19s233.png (281.5 KB)
  • vlcsnap-2011-11-20-20h25m48s77.png (279.1 KB)
  • vlcsnap-2011-11-20-20h26m13s53.png (272.6 KB)
  • vlcsnap-2011-11-20-20h29m00s212.png (189.2 KB)
  • vlcsnap-2011-11-20-20h26m51s173.png (104.1 KB)
  • Movie Poster.jpg (241.9 KB)
  • Torrent Downloaded From ExtraTorrent.com.txt (0.3 KB)
  • Torrent Downloaded from Demonoid.me.txt (0.0 KB)
  • Torrent Downloaded From h33t.com.txt (0.0 KB)
  • Torrent Downloaded from 1337x.org.txt (0.0 KB)

There are currently no comments. Feel free to leave one :)

Code:

  • http://fr33dom.h33t.com:3310/announce
  • http://tracker.istole.it/announce
  • http://tracker.novalayer.org:6969/announce
  • http://tracker.publicbt.com:80/announce
  • http://tracker.torrent.to:2710/announce
  • udp://tracker.openbittorrent.com:80/announce
  • udp://tracker.1337x.org:80/announce
SitemapRon Burkhardt | Portrait | Western / Wojenny