Vangaveeti (2017) Telugu - HDRip - x264 - 700MB - MP3 - MovCr

  • Category Movies
  • Type HD
  • Language Telugu
  • Total size 692.7 MB
  • Uploaded By MovCr
  • Downloads 112
  • Last checked 4 months ago
  • Date uploaded 4 months ago
  • Seeders 1
  • Leechers 1

Infohash : 3DF7DF7B5A488575996496C97313DF6041799B80

http://movcr.com

Vangaveeti (2017) Telugu - HDRip - x264 - 700MB - MP3 - MovCr



Video
ID : 1
Format : AVC
Format/Info : Advanced Video Codec
Format profile : [email protected]
Format settings : CABAC / 4 Ref Frames
Format settings, CABAC : Yes
Format settings, RefFrames : 4 frames
Codec ID : V_MPEG4/ISO/AVC
Duration : 2 h 18 min
Bit rate : 625 kb/s
Width : 720 pixels
Height : 306 pixels
Display aspect ratio : 2.35:1
Frame rate mode : Variable
Frame rate : 24.972 FPS
Color space : YUV
Chroma subsampling : 4:2:0
Bit depth : 8 bits
Scan type : Progressive
Bits/(Pixel*Frame) : 0.114
Stream size : 612 MiB (88%)
Title : www.MovCr.com
Writing library : x264 core 155 r2901 7d0ff22
Encoding settings : cabac=1 / ref=2 / deblock=1:0:0 / analyse=0x3:0x113 / me=hex / subme=6 / psy=1 / psy_rd=1.00:0.00 / mixed_ref=1 / me_range=16 / chroma_me=1 / trellis=1 / 8x8dct=1 / cqm=0 / deadzone=21,11 / fast_pskip=1 / chroma_qp_offset=-2 / threads=10 / lookahead_threads=1 / sliced_threads=0 / nr=0 / decimate=1 / interlaced=0 / bluray_compat=0 / constrained_intra=0 / bframes=3 / b_pyramid=2 / b_adapt=1 / b_bias=0 / direct=1 / weightb=1 / open_gop=0 / weightp=1 / keyint=250 / keyint_min=25 / scenecut=40 / intra_refresh=0 / rc_lookahead=30 / rc=abr / mbtree=1 / bitrate=625 / ratetol=1.0 / qcomp=0.60 / qpmin=0 / qpmax=69 / qpstep=4 / vbv_maxrate=12500 / vbv_bufsize=12500 / nal_hrd=none / filler=0 / ip_ratio=1.40 / aq=1:1.00
Default : Yes
Forced : No
Color range : Limited
Color primaries : BT.709
Transfer characteristics : BT.709
Matrix coefficients : BT.709

Audio
ID : 2
Format : MPEG Audio
Format version : Version 1
Format profile : Layer 3
Format settings : Joint stereo / MS Stereo
Codec ID : A_MPEG/L3
Codec ID/Hint : MP3
Duration : 2 h 18 min
Bit rate mode : Constant
Bit rate : 80.0 kb/s
Channel(s) : 2 channels
Sampling rate : 44.1 kHz
Frame rate : 38.281 FPS (1152 SPF)
Compression mode : Lossy
Delay relative to video : -80 ms
Stream size : 79.1 MiB (11%)
Title : www.MovCr.com
Default : Yes
Forced : No







Files:

  • [MovCr.com] - Vangaveeti (2017) Telugu - HDRip - x264 - 700MB - MP3 - MovCr.mkv (692.7 MB)

There are currently no comments. Feel free to leave one :)

Code:

  • http://t.nyaatracker.com:80/announce
  • udp://tracker.doko.moe:6969/announce
  • udp://thetracker.org:80/announce
  • http://tracker.tfile.co:80/announce
  • udp://bt.xxx-tracker.com:2710/announce
  • udp://tracker.vanitycore.co:6969/announce
  • http://retracker.spark-rostov.ru:80/announce
  • http://tracker.city9x.com:2710/announce
  • http://tracker.tfile.me:80/announce
  • udp://tracker.tiny-vps.com:6969/announce
  • http://retracker.telecom.by:80/announce
  • http://tracker.electro-torrent.pl:80/announce
  • udp://tracker.leechers-paradise.org:6969/announce
  • udp://tracker.opentrackr.org:1337/announce
  • http://open.kickasstracker.com:443/announce
  • udp://tracker.coppersurfer.tk:6969/announce
  • udp://open.stealth.si:80/announce
  • http://retracker.mgts.by:80/announce
  • udp://inferno.demonoid.pw:3418/announce
  • udp://retracker.lanta-net.ru:2710/announce
  • http://fxtt.ru:80/announce
SitemapJason Bourne | 50 Assorted Magazines - February 18 2019 | @midnight 9.1