The Twilight Saga Breaking Dawn – Part 1 (2011) 1080p 10bit Blura...

  • Category Movies
  • Type Dubs/Dual Audio
  • Language Hindi
  • Total size 3.0 GB
  • Uploaded By McuDudeS
  • Downloads 751
  • Last checked 8 minutes ago
  • Date uploaded 2 months ago
  • Seeders 5
  • Leechers 11

The Twilight Saga: Breaking Dawn - ...

AdventureFantasyRomance

The new found married bliss of Bella Swan and vampire Edward Cullen is cut short when a series of betrayals and misfortunes threatens to destroy their world. Bella soon discovers she is pregnant, and during a nearly fatal childbirth, Edward finally fulfills her wish to become immortal. But the arrival of their remarkable daughter, Renesmee, sets in motion a perilous chain of events that pits the Cullens and their allies against the Volturi, the fearsome council of vampire leaders, setting the stage for an all-out battle.

Infohash : 5FBFC3366B755D1ED994750B2CB969C5A77C3A30






The Twilight Saga Breaking Dawn – Part 1 (2011) 1080p 10bit Bluray x265 HEVC [Org DD 2.0 Hindi + DD 5.1 English] ESubs ~ {RoCK-HD-STAr}





Code:


General
Complete name                            : The Twilight Saga Breaking Dawn – Part 1 (2011) 1080p 10bit Bluray x265 HEVC [Org DD 2.0 Hindi + DD 5.1 English] ESubs ~ {RoCK-HD-STAr}.mkv
Format                                   : Matroska
Format version                           : Version 4
File size                                : 2.96 GiB
Duration                                 : 2 h 4 min
Overall bit rate                         : 3 407 kb/s
Movie name                               : The Twilight Saga Breaking Dawn – Part 1 (2011) 1080p 10bit Bluray x265 HEVC [Org DD 2.0 Hindi + DD 5.1 English] ESubs---The King Of Entertainment ~ {RoCK-HD-STAr}

Video
ID                                       : 4
Format                                   : HEVC
Format/Info                              : High Efficiency Video Coding
Format profile                           : [email protected]@Main
Codec ID                                 : V_MPEGH/ISO/HEVC
Duration                                 : 1 h 57 min
Bit rate                                 : 2 726 kb/s
Width                                    : 1 920 pixels
Height                                   : 800 pixels
Display aspect ratio                     : 2.40:1
Frame rate mode                          : Constant
Frame rate                               : 23.976 (24000/1001) FPS
Color space                              : YUV
Chroma subsampling                       : 4:2:0
Bit depth                                : 8 bits
Bits/(Pixel*Frame)                       : 0.074
Stream size                              : 2.23 GiB (75%)
Title                                    : {RoCK-HD-STAr}
Language                                 : English
Default                                  : Yes
Forced                                   : No


Audio #1
ID                                       : 1
Format                                   : AC-3
Format/Info                              : Audio Coding 3
Commercial name                          : Dolby Digital
Codec ID                                 : A_AC3
Duration                                 : 2 h 4 min
Bit rate mode                            : Constant
Bit rate                                 : 640 kb/s
Channel(s)                               : 6 channels
Channel layout                           : L R C LFE Ls Rs
Sampling rate                            : 48.0 kHz
Frame rate                               : 31.250 FPS (1536 SPF)
Bit depth                                : 16 bits
Compression mode                         : Lossy
Delay relative to video                  : -105 ms
Stream size                              : 569 MiB (19%)
Title                                    : {RoCK-HD-STAr}
Language                                 : English
Service kind                             : Complete Main
Default                                  : Yes
Forced                                   : No

Audio #2
ID                                       : 2
Format                                   : AC-3
Format/Info                              : Audio Coding 3
Commercial name                          : Dolby Digital
Codec ID                                 : A_AC3
Duration                                 : 1 h 57 min
Bit rate mode                            : Constant
Bit rate                                 : 192 kb/s
Channel(s)                               : 2 channels
Channel layout                           : L R
Sampling rate                            : 48.0 kHz
Frame rate                               : 31.250 FPS (1536 SPF)
Bit depth                                : 16 bits
Compression mode                         : Lossy
Delay relative to video                  : -105 ms
Stream size                              : 161 MiB (5%)
Title                                    : {RoCK-HD-STAr}
Language                                 : Hindi
Service kind                             : Complete Main
Default                                  : No
Forced                                   : Yes

Text
ID                                       : 3
Format                                   : PGS
Muxing mode                              : zlib
Codec ID                                 : S_HDMV/PGS
Codec ID/Info                            : Picture based subtitle format used on BDs/HD-DVDs
Duration                                 : 1 h 56 min
Bit rate                                 : 35.1 kb/s
Count of elements                        : 2342
Stream size                              : 29.4 MiB (1%)
Title                                    : {RoCK-HD-STAr}
Language                                 : English
Default                                  : Yes
Forced                                   : No

Menu
00:00:00.000                             : :00:00:00.000
00:08:12.575                             : :00:08:10.115
00:11:30.856                             : :00:11:23.683
00:16:33.617                             : :00:16:30.740
00:21:03.846                             : :00:21:03.762
00:29:38.526                             : :00:29:28.266
00:34:53.383                             : :00:34:43.290
00:41:15.639                             : :00:41:15.556
00:47:44.570                             : :00:47:42.485
00:56:07.906                             : :00:55:57.813
01:04:24.318                             : :01:04:21.441
01:09:49.185                             : :01:09:47.058
01:13:47.464                             : :01:13:47.381
01:20:53.140                             : :01:20:50.804
01:28:23.047                             : :01:28:22.964
01:36:35.664                             : :01:36:25.488
01:41:53.816                             : :01:41:44.098
01:46:55.200                             : :01:46:51.697










Files:

The Twilight Saga Breaking Dawn – Part 1 (2011) 1080p 10bit Bluray x265 HEVC [Org DD 2.0 Hindi + DD 5.1 English] ESubs ~ {RoCK-HD-STAr}
  • The Twilight Saga Breaking Dawn – Part 1 (2011) 1080p 10bit Bluray x265 HEVC [Org DD 2.0 Hindi + DD 5.1 English] ESubs ~ {RoCK-HD-STAr}.mkv (3.0 GB)
  • (Sample) The Twilight Saga Breaking Dawn – Part 1 (2011) 1080p 10bit Bluray x265 HEVC [Org DD 2.0 Hindi + DD 5.1 English] ESubs ~ {RoCK-HD-STAr}.mkv (77.2 MB)

Comments

Code:

  • udp://tracker.openbittorrent.com:80/announce
  • udp://tracker.publicbt.com:80/announce
  • UDP://TRACKER.LEECHERS-PARADISE.ORG:6969/ANNOUNCE
  • UDP://TRACKER.LEECHERS-PARADISE.ORG:6969/ANNOUNCE
  • UDP://TRACKER.COPPERSURFER.TK:6969/ANNOUNCE
  • UDP://TRACKER.OPENTRACKR.ORG:1337/ANNOUNCE
  • UDP://TRACKER.ZER0DAY.TO:1337/ANNOUNCE
  • UDP://EDDIE4.NL:6969/ANNOUNCE
SitemapRomantic | Watch This Link! | La Rue chaude